<svg xmlns="http://www.w3.org/2000/svg">
<defs>
<font
       id="EmbeddedFont_1"
       horiz-adv-x="2048"
       horiz-origin-x="0"
       horiz-origin-y="0"
       vert-adv-y="90"
       vert-origin-x="45"
       vert-origin-y="90"><font-face
         font-family="CMU Bright embedded"
         ascent="1826"
         descent="529"
         units-per-em="2048"
         id="font-face9" /><missing-glyph
         d="M 0,0 L 2047,0 2047,2047 0,2047 0,0 Z"
         horiz-adv-x="2048"
         id="missing-glyph11" /><glyph
         d="M 164,273 L 164,967 297,967 297,250 C 297,187 309,143 332,118 355,93 406,80 485,80 562,80 627,104 680,153 733,201 760,270 760,359 L 760,967 891,967 891,1 762,1 762,176 C 726,116 676,69 611,35 546,1 477,-16 401,-16 348,-16 304,-7 270,10 236,27 212,52 198,84 183,117 174,147 170,173 166,200 164,233 164,273 Z"
         horiz-adv-x="742"
         unicode="u"
         id="glyph13" /><glyph
         d="M 39,865 L 39,967 236,967 236,1243 360,1243 360,967 678,967 678,865 360,865 360,283 C 360,155 399,90 477,90 494,90 509,91 524,94 539,96 553,99 566,104 579,109 591,113 601,117 611,121 622,127 632,133 642,140 650,145 655,149 661,152 667,157 675,164 682,171 687,174 688,174 L 715,74 C 618,14 514,-16 403,-16 290,-16 233,79 233,269 L 233,865 39,865 Z"
         horiz-adv-x="689"
         unicode="t"
         id="glyph15" /><glyph
         d="M 164,0 L 164,966 287,966 287,811 289,715 C 300,742 315,769 334,796 353,824 378,852 408,881 438,911 476,935 522,953 569,971 620,981 676,981 L 676,866 C 632,866 589,859 547,846 504,832 464,811 424,782 384,753 353,713 329,662 305,611 293,551 293,483 L 293,0 164,0 Z"
         horiz-adv-x="530"
         unicode="r"
         id="glyph17" /><glyph
         d="M 164,-342 L 164,967 293,967 293,827 C 379,931 483,983 604,983 704,983 788,935 857,839 926,742 961,625 961,488 961,339 920,218 839,124 757,31 665,-16 561,-16 513,-16 468,-4 425,20 382,44 355,62 344,76 333,90 317,110 297,136 L 297,-342 164,-342 Z M 297,267 C 297,224 316,184 355,145 394,106 442,86 498,86 586,86 664,125 730,202 796,279 829,374 829,486 829,593 799,686 737,763 676,840 603,879 518,879 447,879 387,851 338,797 317,771 306,754 302,747 299,739 297,724 297,700 L 297,267 Z"
         horiz-adv-x="821"
         unicode="p"
         id="glyph19" /><glyph
         d="M 82,484 C 82,627 127,747 216,845 305,943 412,991 537,991 664,991 771,941 858,841 946,741 989,621 989,484 989,340 944,221 854,126 764,31 658,-16 537,-16 411,-16 304,33 215,130 126,228 82,346 82,484 Z M 213,508 C 213,424 224,352 247,293 269,234 299,191 335,164 371,137 406,118 438,107 471,96 504,90 537,90 572,90 607,97 642,110 677,123 711,144 745,172 780,201 807,244 827,300 848,357 858,424 858,502 858,576 848,639 827,692 807,746 780,786 745,813 711,841 677,860 642,872 607,883 572,889 537,889 501,889 466,883 431,872 396,860 362,841 328,814 294,788 266,748 245,696 224,643 213,581 213,508 Z"
         horiz-adv-x="927"
         unicode="o"
         id="glyph21" /><glyph
         d="M 164,0 L 164,966 291,966 291,768 C 317,828 356,879 408,921 459,962 523,983 598,983 653,983 699,974 738,957 777,940 806,921 825,899 844,877 859,849 870,813 881,778 887,749 889,727 890,705 891,678 891,645 L 891,0 760,0 760,637 C 760,661 759,681 759,696 758,711 754,732 745,758 737,784 726,805 711,820 696,836 673,850 642,862 611,874 574,881 530,881 469,881 415,856 368,806 321,756 297,666 297,537 L 297,0 164,0 Z"
         horiz-adv-x="742"
         unicode="n"
         id="glyph23" /><glyph
         d="M 164,0 L 164,1423 293,1423 293,0 164,0 Z"
         horiz-adv-x="160"
         unicode="l"
         id="glyph25" /><glyph
         d="M 164,1292 L 164,1421 293,1421 293,1292 164,1292 Z M 164,0 L 164,966 293,966 293,0 164,0 Z"
         horiz-adv-x="160"
         unicode="i"
         id="glyph27" /><glyph
         d="M 94,485 C 94,626 135,744 216,839 297,935 391,982 498,982 608,982 696,923 762,804 L 762,982 891,982 891,18 C 891,-101 856,-196 787,-268 719,-341 631,-377 526,-377 401,-377 274,-346 147,-285 L 147,-174 C 188,-195 222,-211 247,-222 272,-234 311,-246 362,-257 414,-269 468,-275 522,-275 586,-275 642,-250 689,-201 736,-152 760,-77 760,24 L 760,184 758,256 C 736,200 702,149 656,103 611,57 550,35 475,35 373,35 284,78 208,165 132,251 94,358 94,485 Z M 227,485 C 227,385 258,302 321,236 383,170 453,137 532,137 575,137 612,149 643,172 674,195 698,226 714,265 729,304 741,343 749,384 756,424 760,467 760,512 L 762,512 762,647 C 762,696 744,747 709,800 673,853 623,880 557,880 470,880 393,842 327,765 260,689 227,595 227,485 Z"
         horiz-adv-x="822"
         unicode="g"
         id="glyph29" /><glyph
         d="M 57,864 L 57,966 231,966 231,1097 C 231,1133 232,1160 233,1177 235,1195 244,1223 262,1260 280,1298 307,1332 342,1362 405,1413 483,1439 575,1439 623,1439 679,1434 743,1423 L 743,1306 C 681,1325 623,1335 569,1335 515,1335 466,1324 423,1301 380,1279 358,1241 358,1188 L 358,966 614,966 614,864 363,864 363,0 231,0 231,864 57,864 Z"
         horiz-adv-x="689"
         unicode="f"
         id="glyph31" /><glyph
         d="M 86,492 C 86,626 126,742 207,842 287,942 388,991 508,991 550,991 591,985 630,972 669,959 709,937 750,905 791,874 824,824 849,757 874,689 887,608 887,512 L 209,512 209,496 C 209,372 242,272 309,198 376,124 453,86 541,86 657,86 767,133 872,228 L 883,115 C 778,28 664,-16 541,-16 415,-16 308,33 219,130 130,228 86,348 86,492 Z M 219,594 L 776,594 C 767,698 736,773 683,819 630,866 572,889 508,889 438,889 376,861 323,805 269,749 234,679 219,594 Z"
         horiz-adv-x="822"
         unicode="e"
         id="glyph33" /><glyph
         d="M 94,484 C 94,628 133,748 211,842 289,936 379,983 481,983 591,983 684,935 762,840 L 762,1424 891,1424 891,0 760,0 760,86 758,150 C 683,39 586,-16 467,-16 362,-16 273,33 202,132 130,231 94,348 94,484 Z M 227,484 C 227,404 238,337 259,281 280,225 308,184 341,158 374,132 407,114 438,103 470,92 501,86 532,86 609,86 672,120 723,187 727,194 732,201 737,209 743,217 746,223 749,227 751,230 753,235 755,241 757,247 758,254 759,261 759,269 760,278 760,289 L 760,721 C 760,761 739,797 697,830 656,864 607,881 551,881 529,881 506,878 481,872 457,867 429,856 397,839 366,822 338,799 314,772 290,745 270,706 253,655 236,605 227,548 227,484 Z"
         horiz-adv-x="822"
         unicode="d"
         id="glyph35" /><glyph
         d="M 94,486 C 94,622 137,741 221,842 306,943 414,993 547,993 618,993 676,987 720,975 764,963 819,940 883,905 L 862,793 C 821,817 790,835 769,845 748,855 718,865 680,874 642,883 597,887 547,887 450,887 372,851 314,778 256,706 227,609 227,488 229,358 260,259 323,192 385,124 458,90 543,90 599,90 652,99 701,117 751,135 787,151 808,166 829,181 855,202 885,228 L 895,113 C 790,27 672,-16 541,-16 416,-16 311,32 224,129 138,226 94,345 94,486 Z"
         horiz-adv-x="822"
         unicode="c"
         id="glyph37" /><glyph
         d="M 113,237 C 113,271 122,304 139,336 157,369 186,401 226,433 267,465 328,491 411,511 493,531 593,541 709,541 L 709,627 C 709,717 690,782 653,825 614,873 563,897 502,897 451,897 402,890 354,876 307,861 275,849 259,840 243,830 216,814 178,791 L 168,905 C 279,964 390,993 504,993 606,993 686,962 744,898 802,835 834,764 840,686 L 842,617 842,0 713,0 713,142 C 628,37 509,-16 354,-16 L 340,-16 C 265,-16 208,11 170,66 132,121 113,178 113,237 Z M 240,240 C 240,191 261,153 304,126 347,100 396,86 451,86 475,86 500,89 526,96 552,102 580,112 609,125 639,139 663,160 681,190 699,220 709,255 709,296 L 709,478 C 571,478 458,456 371,412 283,368 240,311 240,240 Z"
         horiz-adv-x="742"
         unicode="a"
         id="glyph39" /><glyph
         d="M 29,0 L 600,751 59,1423 233,1423 674,860 1096,1423 1260,1423 748,749 1350,0 1176,0 674,651 195,0 29,0 Z"
         horiz-adv-x="1324"
         unicode="X"
         id="glyph41" /><glyph
         d="M 119,708 C 119,918 186,1096 321,1239 455,1383 615,1455 801,1455 985,1455 1145,1383 1280,1239 1415,1096 1483,918 1483,708 1483,498 1415,322 1280,179 1145,36 985,-35 801,-35 616,-35 457,37 322,180 186,323 119,499 119,708 Z M 262,735 C 262,538 315,379 422,257 528,135 655,74 801,74 946,74 1071,134 1179,254 1286,374 1339,534 1339,735 1339,923 1286,1073 1179,1183 1071,1294 946,1349 801,1349 656,1349 530,1294 423,1184 316,1074 262,925 262,735 Z"
         horiz-adv-x="1377"
         unicode="O"
         id="glyph43" /><glyph
         d="M 207,0 L 207,1423 395,1423 809,408 903,166 932,248 1407,1423 1597,1423 1597,0 1468,0 1468,1290 1309,881 963,35 840,35 410,1093 336,1290 336,0 207,0 Z"
         horiz-adv-x="1430"
         unicode="M"
         id="glyph45" /><glyph
         d="M 201,0 L 201,1423 344,1423 344,0 201,0 Z"
         horiz-adv-x="160"
         unicode="I"
         id="glyph47" /><glyph
         d="M 201,0 L 201,1419 1131,1419 1131,1310 344,1310 344,764 1040,764 1040,655 344,655 344,0 201,0 Z"
         horiz-adv-x="954"
         unicode="F"
         id="glyph49" /><glyph
         d="M 201,0 L 201,1419 1159,1419 1159,1310 344,1310 344,793 1100,793 1100,684 344,684 344,115 1190,115 1190,0 201,0 Z"
         horiz-adv-x="1007"
         unicode="E"
         id="glyph51" /><glyph
         d="M 249,347 C 194,459 166,581 166,710 166,840 194,961 249,1074 304,1186 385,1278 491,1349 596,1420 715,1456 846,1456 976,1456 1107,1432 1241,1386 L 1214,1245 C 1172,1268 1139,1285 1115,1296 1091,1307 1054,1318 1004,1330 953,1341 900,1347 844,1347 691,1347 564,1285 462,1160 360,1035 309,885 309,710 309,538 360,389 461,263 562,137 690,74 846,74 915,74 977,81 1031,95 1085,109 1122,122 1142,132 1162,142 1199,164 1253,198 L 1264,80 C 1214,52 1176,32 1149,19 1122,6 1081,-6 1028,-18 975,-29 914,-35 846,-35 715,-35 596,0 491,71 385,142 304,234 249,347 Z"
         horiz-adv-x="1112"
         unicode="C"
         id="glyph53" /><glyph
         d="M 59,0 L 612,1440 768,1440 1321,0 1171,0 1006,430 356,430 193,0 59,0 Z M 399,539 L 965,539 715,1198 682,1290 399,539 Z"
         horiz-adv-x="1271"
         unicode="A"
         id="glyph55" /><glyph
         horiz-adv-x="688"
         unicode=" "
         id="glyph57" /></font></defs><defs
     id="defs97"><font
       id="EmbeddedFont_2"
       horiz-adv-x="2048"
       horiz-origin-x="0"
       horiz-origin-y="0"
       vert-adv-y="90"
       vert-origin-x="45"
       vert-origin-y="90"><font-face
         font-family="Liberation Sans embedded"
         ascent="1852"
         descent="423"
         units-per-em="2048"
         id="font-face62" /><missing-glyph
         d="M 0,0 L 2047,0 2047,2047 0,2047 0,0 Z"
         horiz-adv-x="2048"
         id="missing-glyph64" /><glyph
         d="M 554,8 C 527,1 499,-5 471,-10 442,-14 409,-16 372,-16 228,-16 156,66 156,229 L 156,951 31,951 31,1082 163,1082 216,1324 336,1324 336,1082 536,1082 536,951 336,951 336,268 C 336,216 345,180 362,159 379,138 408,127 450,127 467,127 484,128 501,131 517,134 535,137 554,141 L 554,8 Z"
         horiz-adv-x="531"
         unicode="t"
         id="glyph66" /><glyph
         d="M 142,0 L 142,830 C 142,853 142,876 142,900 141,923 141,946 140,968 139,990 139,1011 138,1030 137,1049 137,1067 136,1082 L 306,1082 C 307,1067 308,1049 309,1030 310,1010 311,990 312,969 313,948 313,929 314,910 314,891 314,874 314,861 L 318,861 C 331,902 344,938 359,969 373,999 390,1024 409,1044 428,1063 451,1078 478,1088 505,1097 537,1102 575,1102 590,1102 604,1101 617,1099 630,1096 641,1094 648,1092 L 648,927 C 636,930 622,933 606,935 590,936 572,937 552,937 511,937 476,928 447,909 418,890 394,865 376,832 357,799 344,759 335,714 326,668 322,618 322,564 L 322,0 142,0 Z"
         horiz-adv-x="530"
         unicode="r"
         id="glyph68" /><glyph
         d="M 1053,546 C 1053,464 1046,388 1033,319 1020,250 998,190 967,140 936,90 895,51 844,23 793,-6 730,-20 655,-20 578,-20 510,-5 452,24 394,53 350,101 319,168 L 314,168 C 315,167 315,161 316,150 316,139 316,126 317,110 317,94 317,76 318,57 318,37 318,17 318,-2 L 318,-425 138,-425 138,864 C 138,891 138,916 138,940 137,964 137,986 136,1005 135,1025 135,1042 134,1056 133,1070 133,1077 132,1077 L 306,1077 C 307,1075 308,1068 309,1057 310,1045 311,1031 312,1014 313,998 314,980 315,961 316,943 316,925 316,908 L 320,908 C 337,943 356,972 377,997 398,1021 423,1041 450,1057 477,1072 508,1084 542,1091 575,1098 613,1101 655,1101 730,1101 793,1088 844,1061 895,1034 936,997 967,949 998,900 1020,842 1033,774 1046,705 1053,629 1053,546 Z M 864,542 C 864,609 860,668 852,720 844,772 830,816 811,852 791,888 765,915 732,934 699,953 658,962 609,962 569,962 531,956 496,945 461,934 430,912 404,880 377,848 356,804 341,748 326,691 318,618 318,528 318,451 324,387 337,334 350,281 368,238 393,205 417,172 447,149 483,135 519,120 560,113 607,113 657,113 699,123 732,142 765,161 791,189 811,226 830,263 844,308 852,361 860,414 864,474 864,542 Z"
         horiz-adv-x="953"
         unicode="p"
         id="glyph70" /><glyph
         d="M 138,0 L 138,1484 318,1484 318,0 138,0 Z"
         horiz-adv-x="187"
         unicode="l"
         id="glyph72" /><glyph
         d="M 137,1312 L 137,1484 317,1484 317,1312 137,1312 Z M 137,0 L 137,1082 317,1082 317,0 137,0 Z"
         horiz-adv-x="187"
         unicode="i"
         id="glyph74" /><glyph
         d="M 276,503 C 276,446 282,394 294,347 305,299 323,258 348,224 372,189 403,163 441,144 479,125 525,115 578,115 656,115 719,131 766,162 813,193 844,233 861,281 L 1019,236 C 1008,206 992,176 972,146 951,115 924,88 890,64 856,39 814,19 763,4 712,-12 650,-20 578,-20 418,-20 296,28 213,123 129,218 87,360 87,548 87,649 100,735 125,806 150,876 185,933 229,977 273,1021 324,1053 383,1073 442,1092 504,1102 571,1102 662,1102 738,1087 799,1058 860,1029 909,988 946,937 983,885 1009,824 1025,754 1040,684 1048,608 1048,527 L 1048,503 276,503 Z M 862,641 C 852,755 823,838 775,891 727,943 658,969 568,969 538,969 507,964 474,955 441,945 410,928 382,903 354,878 330,845 311,803 292,760 281,706 278,641 L 862,641 Z"
         horiz-adv-x="980"
         unicode="e"
         id="glyph76" /><glyph
         d="M 821,174 C 788,105 744,55 689,25 634,-5 565,-20 484,-20 347,-20 247,26 183,118 118,210 86,349 86,536 86,913 219,1102 484,1102 566,1102 634,1087 689,1057 744,1027 788,979 821,914 L 823,914 C 823,921 823,931 823,946 822,960 822,975 822,991 821,1006 821,1021 821,1035 821,1049 821,1059 821,1065 L 821,1484 1001,1484 1001,219 C 1001,193 1001,168 1002,143 1002,119 1002,97 1003,77 1004,57 1004,40 1005,26 1006,11 1006,4 1007,4 L 835,4 C 834,11 833,20 832,32 831,44 830,58 829,73 828,89 827,105 826,123 825,140 825,157 825,174 L 821,174 Z M 275,542 C 275,467 280,403 289,350 298,297 313,253 334,219 355,184 381,159 413,143 445,127 484,119 530,119 577,119 619,127 656,142 692,157 722,182 747,217 771,251 789,296 802,351 815,406 821,474 821,554 821,631 815,696 802,749 789,802 771,844 746,877 721,910 691,933 656,948 620,962 579,969 532,969 488,969 450,961 418,946 386,931 359,906 338,872 317,838 301,794 291,740 280,685 275,619 275,542 Z"
         horiz-adv-x="927"
         unicode="d"
         id="glyph78" /><glyph
         d="M 275,546 C 275,484 280,427 289,375 298,323 313,278 334,241 355,203 384,174 419,153 454,132 497,122 548,122 612,122 666,139 709,173 752,206 778,258 788,328 L 970,328 C 964,283 951,239 931,197 911,155 884,118 850,86 815,54 773,28 724,9 675,-10 618,-20 553,-20 468,-20 396,-6 337,23 278,52 230,91 193,142 156,192 129,251 112,320 95,388 87,462 87,542 87,615 93,679 105,735 117,790 134,839 156,881 177,922 203,957 232,986 261,1014 293,1037 328,1054 362,1071 398,1083 436,1091 474,1098 512,1102 551,1102 612,1102 666,1094 713,1077 760,1060 801,1038 836,1009 870,980 898,945 919,906 940,867 955,824 964,779 L 779,765 C 770,825 746,873 708,908 670,943 616,961 546,961 495,961 452,953 418,936 383,919 355,893 334,859 313,824 298,781 289,729 280,677 275,616 275,546 Z"
         horiz-adv-x="901"
         unicode="c"
         id="glyph80" /><glyph
         d="M 1053,546 C 1053,169 920,-20 655,-20 573,-20 505,-5 451,25 396,54 352,102 318,168 L 316,168 C 316,150 316,132 315,113 314,94 313,77 312,61 311,45 310,31 309,19 308,8 307,2 306,2 L 132,2 C 133,8 133,18 134,32 135,47 135,64 136,84 137,104 137,126 138,150 138,174 138,199 138,225 L 138,1484 318,1484 318,1061 C 318,1041 318,1022 318,1004 317,985 317,969 316,955 315,938 315,923 314,908 L 318,908 C 351,977 396,1027 451,1057 506,1087 574,1102 655,1102 792,1102 892,1056 957,964 1021,872 1053,733 1053,546 Z M 864,540 C 864,615 859,679 850,732 841,785 826,829 805,864 784,898 758,923 726,939 694,955 655,963 609,963 562,963 520,955 484,940 447,925 417,900 393,866 368,832 350,787 337,732 324,677 318,609 318,529 318,452 324,387 337,334 350,281 368,239 393,206 417,173 447,149 483,135 519,120 560,113 607,113 651,113 689,121 721,136 753,151 780,176 801,210 822,244 838,288 849,343 859,397 864,463 864,540 Z"
         horiz-adv-x="953"
         unicode="b"
         id="glyph82" /><glyph
         d="M 414,-20 C 305,-20 224,9 169,66 114,124 87,203 87,303 87,375 101,434 128,480 155,526 190,562 234,588 277,614 327,632 383,642 439,652 496,657 554,657 L 797,657 797,717 C 797,762 792,800 783,832 774,863 759,889 740,908 721,928 697,942 668,951 639,960 604,965 565,965 530,965 499,963 471,958 443,953 419,944 398,931 377,918 361,900 348,878 335,855 327,827 323,793 L 135,810 C 142,853 154,892 173,928 192,963 218,994 253,1020 287,1046 330,1066 382,1081 433,1095 496,1102 569,1102 705,1102 807,1071 876,1009 945,946 979,856 979,738 L 979,272 C 979,219 986,179 1000,152 1014,125 1041,111 1080,111 1090,111 1100,112 1110,113 1120,114 1130,116 1139,118 L 1139,6 C 1116,1 1094,-3 1072,-6 1049,-9 1025,-10 1000,-10 966,-10 937,-5 913,4 888,13 868,26 853,45 838,63 826,86 818,113 810,140 805,171 803,207 L 797,207 C 778,172 757,141 734,113 711,85 684,61 653,42 622,22 588,7 549,-4 510,-15 465,-20 414,-20 Z M 455,115 C 512,115 563,125 606,146 649,167 684,194 713,226 741,259 762,294 776,332 790,371 797,408 797,443 L 797,531 600,531 C 556,531 514,528 475,522 435,517 400,506 370,489 340,472 316,449 299,418 281,388 272,349 272,300 272,241 288,195 320,163 351,131 396,115 455,115 Z"
         horiz-adv-x="1060"
         unicode="a"
         id="glyph84" /><glyph
         d="M 777,584 L 777,0 587,0 587,584 45,1409 255,1409 684,738 1111,1409 1321,1409 777,584 Z"
         horiz-adv-x="1298"
         unicode="Y"
         id="glyph86" /><glyph
         d="M 1112,0 L 689,616 257,0 46,0 582,732 87,1409 298,1409 690,856 1071,1409 1282,1409 800,739 1323,0 1112,0 Z"
         horiz-adv-x="1298"
         unicode="X"
         id="glyph88" /><glyph
         d="M 1366,0 L 1366,940 C 1366,974 1366,1009 1367,1044 1368,1079 1369,1112 1370,1141 1371,1175 1373,1208 1375,1240 1366,1206 1356,1172 1346,1139 1337,1110 1328,1080 1318,1048 1307,1015 1297,986 1287,960 L 923,0 789,0 420,960 C 416,970 412,982 408,995 403,1008 399,1023 394,1038 389,1053 384,1068 379,1084 374,1099 369,1115 364,1130 353,1165 342,1202 331,1240 332,1203 333,1166 334,1129 335,1098 336,1065 337,1031 338,996 338,966 338,940 L 338,0 168,0 168,1409 419,1409 794,432 C 799,419 804,402 811,381 818,360 824,338 830,316 836,294 842,273 847,254 852,234 855,219 857,208 859,219 863,234 868,254 873,274 880,295 887,317 894,339 900,360 907,381 914,402 920,419 925,432 L 1293,1409 1538,1409 1538,0 1366,0 Z"
         horiz-adv-x="1377"
         unicode="M"
         id="glyph90" /><glyph
         d="M 168,0 L 168,1409 359,1409 359,156 1071,156 1071,0 168,0 Z"
         horiz-adv-x="927"
         unicode="L"
         id="glyph92" /><glyph
         d="M 1167,0 L 1006,412 364,412 202,0 4,0 579,1409 796,1409 1362,0 1167,0 Z M 768,1026 C 757,1053 747,1080 738,1107 728,1134 719,1159 712,1182 705,1204 699,1223 694,1238 689,1253 686,1262 685,1265 684,1262 681,1252 676,1237 671,1222 665,1203 658,1180 650,1157 641,1132 632,1105 622,1078 612,1051 602,1024 L 422,561 949,561 768,1026 Z"
         horiz-adv-x="1377"
         unicode="A"
         id="glyph94" /></font>
</defs>
</svg>
